#TITLE:Over the rave;
#SUBTITLE:;
#ARTIST:Takoyaki;
#TITLETRANSLIT:;
#SUBTITLETRANSLIT:;
#ARTISTTRANSLIT:;
#CREDIT:Tony;
#BANNER:overtherave-bn.png;
#BACKGROUND:overtherave-bg.jpg;
#LYRICSPATH:;
#CDTITLE:overtherave.png;
#MUSIC:Over the rave.ogg;
#OFFSET:0.000;
#SAMPLESTART:37.520;
#SAMPLELENGTH:11.940;
#SELECTABLE:YES;
#DISPLAYBPM:160.000;
#BPMS:0.000=160.000,227.250=157.000,228.000=160.000;
#STOPS:;
#BGCHANGES:;
// cache tags:
#FIRSTBEAT:4.000;
#LASTBEAT:284.000;
#SONGFILENAME:Songs/SDO/Over the rave/Over the rave.sm;
#HASMUSIC:1;
#HASBANNER:1;
#MUSICLENGTH:110.847;
// end cache tags

//---------------dance-single - ----------------
#NOTES:
     dance-single:
     :
     Hard:
     20:
     1.000,1.000,1.000,0.135,1.000,741.000,145.000,15.000,0.000,17.000:
0000
0000
0000
0000
,
1100
0110
0011
0110
,
1100
0011
0110
1100
,
0110
1100
0110
0011
,
0011
0000
0000
0000
0110
0000
1000
0100
1000
0000
1000
0000
0100
0000
0100
0000
,
1110
0000
0010
1000
0100
0000
0100
0010
0001
0000
0100
0010
1000
0000
0100
0001
,
1000
0000
0001
0010
1000
0000
0000
1000
0000
0000
0010
0000
0100
0000
0010
0000
,
1100
0000
0010
0100
0001
0000
1000
0100
1000
0000
0001
0100
0010
0000
0010
0000
,
1000
0000
0001
0000
1000
0000
0001
0000
1000
0000
0010
0000
0100
0000
0010
0000
0100
0000
0010
0000
1000
0100
0010
0001
0010
0100
1000
0001
0010
0100
1000
0000
,
0111
0000
0100
0000
1000
0000
0100
0010
0000
0001
0000
0001
1000
0000
0001
0000
,
1010
0000
0100
0000
1000
0000
0100
1000
0000
0100
0000
0100
0010
0000
1000
0000
,
0110
0000
0010
0000
0001
0000
0100
0001
0000
0001
0000
0001
0100
0000
0010
0000
,
1100
0000
0010
0000
0001
0000
0010
0001
0000
0100
0000
0100
1000
0000
1000
0000
,
1010
0000
0100
0000
0001
0000
0010
1000
0000
0100
0000
0100
1000
0000
0010
0000
,
0011
0000
0100
0000
0001
0000
0001
0100
0000
0001
0000
0010
0100
0000
1000
0000
,
1010
0000
0100
0000
1000
0000
0100
0010
0000
0010
0000
0010
0001
0000
1000
0000
,
1010
0000
0100
0000
0010
0000
0001
0000
1010
0000
0100
0000
0010
0000
0001
0000
1010
0000
0100
0000
0010
0000
0001
1000
0100
0010
0001
1000
0100
0010
0001
0000
,
1100
0000
0010
0000
0100
0000
1000
0000
0101
0000
0010
0100
0010
1000
0100
0010
,
1100
0000
0100
0000
0100
0010
0100
0001
0110
0000
0001
0000
1001
0000
1010
0000
,
0101
0000
0010
0000
1000
0000
0100
0000
0001
0000
0010
0100
0010
0100
1000
0100
,
0011
0000
0001
0010
0100
0010
0001
0010
0100
0010
0001
0010
0100
0010
0001
0010
,
1100
0000
0010
0000
1001
0000
1000
0000
1100
0000
0100
1000
0010
0100
0010
1000
,
0100
0000
1000
0010
0100
0001
0010
0001
1100
0000
0100
0000
1100
0000
1000
0000
,
1100
0000
0010
0000
1001
0000
0001
0000
0101
0000
0010
0001
0010
1000
0100
0010
,
0101
0000
0000
0000
0010
0000
0100
0000
0010
0000
1000
0000
0010
0000
0100
0000
0010
0000
1000
1000
1010
0000
0001
0000
0010
0000
1000
1000
1010
0000
0001
0000
,
1010
0000
0100
0000
1100
0000
0001
0000
1010
0001
0100
1000
0000
0100
0010
0001
,
1010
0000
0010
0000
1001
0010
0100
0010
1001
0000
1000
0000
1100
0000
0100
0000
,
1001
0000
0010
0000
0101
0000
1000
0000
1100
0000
1010
0100
0001
0100
1000
0100
,
0011
0000
0100
0001
1000
0010
0100
0001
1000
0010
0100
0001
1000
0010
0100
0001
,
1100
0000
0010
0000
1100
0000
1000
0000
0101
1000
0010
0100
0011
0000
0100
0010
,
1001
0000
0100
1000
0001
1000
0100
0010
1100
0000
0100
0000
1100
0000
0010
0000
,
0011
0000
0100
0000
1001
0000
0010
0000
1100
0000
0001
0010
0001
0010
0100
1000
,
1100
0000
1001
0010
1100
0010
1001
0010
1100
0010
1001
0010
1100
0000
0000
0000
,
0102
0000
1100
0003
0201
0000
0011
0300
,
2001
3200
0320
1031
,
1010
0000
0100
0000
1000
0000
0010
0000
0001
0001
0000
0010
0000
0000
0001
0010
,
1000
0001
0000
0001
1000
0000
1000
0100
0000
0010
0000
0010
1000
0000
0001
0000
,
2010
0011
3201
1010
,
1302
0023
0230
1310
,
0110
0000
0001
0000
0010
0000
0100
0000
1000
1000
0000
0001
0000
0010
0001
0000
,
0101
0000
1000
0000
0100
0000
0100
0000
0010
0000
0010
0000
0001
0000
1001
0000
1000
0100
0010
0001
0010
0100
1000
0100
0010
0001
0010
0100
1000
0100
0010
0001
,
2100
0011
0110
0100
,
0001
0000
0000
0000
0101
0000
0010
0000
0000
0010
0000
0000
0001
0000
0010
0000
,
3200
0011
0010
0011
,
0010
0001
0000
0001
0010
0000
0001
0010
0000
0010
0000
0001
0010
0000
0001
0000
,
1311
1000
1100
0001
,
0101
0000
0000
0000
0010
0000
0100
0000
0100
0100
0000
0000
0100
0000
0100
0000
,
1100
0000
1100
0000
,
0110
0000
0110
0000
1100
1100
1100
0000
,
1100
0010
0001
0100
0010
0100
1000
0100
1000
0001
0100
0010
1000
0001
0100
0010
,
1000
0100
0010
0001
1000
0100
1000
0010
0100
0001
0010
0001
0100
0010
0100
1000
,
0010
0100
0010
1000
0010
0100
0001
0010
0001
0100
0010
1000
0010
0100
0010
1000
,
0100
0010
0100
0001
1000
0100
0010
1000
0001
0100
0010
0100
0001
1000
0100
1000
,
0110
0001
0100
0001
1000
0100
0001
0010
0001
0100
0010
0100
0001
0010
0100
0010
,
1000
0010
0001
0010
1000
0010
0001
0010
1000
0100
1000
0010
0001
0100
0010
0001
,
1010
0100
0010
0001
0100
0010
1000
0010
0101
0010
0100
1000
0001
0010
0100
0010
,
0001
0000
0100
0000
0010
0000
1000
0000
0100
0000
0001
0000
0100
0000
0010
0000
1000
0000
0001
0100
0010
1000
0001
0100
0010
1000
0000
0000
0000
0000
0000
0000
,
2010
0000
0001
0000
0100
0000
0010
0000
3101
0000
0001
0010
0101
0000
1001
0100
,
0010
0001
0100
0010
0100
0001
0010
0100
0011
0000
0010
0000
1001
0000
0100
0000
,
1001
0000
0010
0000
1001
0000
1000
0000
1001
0000
0100
0010
1001
0100
0010
0001
,
0110
0000
0100
0010
0101
1000
0010
0100
1001
0010
0100
1000
0101
0000
0000
0000
,
1000
0000
0100
0000
1000
0000
0010
0000
0100
0001
0000
0100
0000
0010
1000
0000
,
0100
0000
1000
0000
0001
0000
0100
0000
0010
1000
0000
0001
0000
0100
0010
0000
,
1100
0000
1000
0000
1100
0000
0010
0000
0101
0000
1000
0100
1000
0001
0010
0100
,
1010
0001
1000
0010
0100
0010
1000
0010
0100
0010
1000
0100
0010
0100
1000
0000
,
1001
0000
0001
0000
0100
0000
0010
0000
1000
0001
0000
0100
0000
1000
0100
0000
,
0001
0000
0100
0000
1000
0000
0010
0000
0100
0001
0000
0010
0000
0001
1000
0000
,
0101
0000
0010
0000
1100
0000
0010
0000
1010
0000
0001
0010
0001
1000
0100
1000
,
0101
0010
1000
0010
0101
0010
1000
0100
0001
0100
1000
0010
1100
0010
1000
0100
,
1010
0000
0001
0000
0100
0000
0010
0000
1001
0000
0100
0000
0010
0000
0001
0000
1100
0000
0010
0000
1000
0100
0010
0001
1000
0000
0110
0000
1000
0000
0010
0000
,
1001
0110
0000
1010
0000
0101
0000
0110
0220
0000
0000
0000
0000
0000
0000
0000
,
0330
0000
0000
0000
;
